RSS Feed Reading

MFTSoft

banner_468x80
» » Race 3 (2018) 720p Untouched WEB-DL AVC AAC 2.0 Esubs-TeamTT Exclusive

Race 3 (2018) 720p Untouched WEB-DL AVC AAC 2.0 Esubs-TeamTT Exclusive

Race 3 (2018) 720p Untouched WEB-DL AVC AAC 2.0 Esubs-TeamTT Exclusive





Format                      : MPEG-4
Format profile              : Base Media
Codec ID                    : isom (isom)
File size                   : 3.09 GiB
Duration                    : 2 h 35 min
Overall bit rate mode       : Variable
Overall bit rate            : 2 853 kb/s
Encoded date                : UTC 2018-08-20 14:48:38
Tagged date                 : UTC 2018-08-20 14:48:38

Video
ID                          : 1
Format                      : AVC
Format/Info                 : Advanced Video Codec
Format profile              : Baseline@L4.1
Format settings, CABAC      : No
Format settings, RefFrames  : 1 frame
Codec ID                    : avc1
Codec ID/Info               : Advanced Video Coding
Duration                    : 2 h 35 min
Bit rate                    : 2 655 kb/s
Width                       : 1 280 pixels
Height                      : 720 pixels
Display aspect ratio        : 16:9
Frame rate mode             : Variable
Frame rate                  : 23.621 FPS
Minimum frame rate          : 9.997 FPS
Maximum frame rate          : 30.030 FPS
Color space                 : YUV
Chroma subsampling          : 4:2:0
Bit depth                   : 8 bits
Scan type                   : Progressive
Bits/(Pixel*Frame)          : 0.122
Stream size                 : 2.88 GiB (93%)
Encoded date                : UTC 2018-08-21 12:05:15
Tagged date                 : UTC 2018-08-20 14:49:48

Audio
ID                          : 2
Format                      : AAC
Format/Info                 : Advanced Audio Codec
Format profile              : LC
Codec ID                    : 40
Duration                    : 2 h 35 min
Bit rate mode               : Variable
Bit rate                    : 192 kb/s
Maximum bit rate            : 275 kb/s
Channel(s)                  : 2 channels
Channel positions           : Front: L R
Sampling rate               : 48.0 kHz
Frame rate                  : 46.875 FPS (1024 SPF)
Compression mode            : Lossy
Stream size                 : 217 MiB (7%)
Encoded date                : UTC 2018-08-21 12:05:15
Tagged date                 : UTC 2018-08-20 14:49:48




HeroUpload Discount Start up to 50% discount on All Premiums packages buy Premium and support us.

SINGLE DIRECT FAST LINKS
http://www.heroupload.us/0ff639771c1dced8/Race.3.2018.720p.Untouched.WEB-DL.AVC.AAC.2.0.Esubs-Team.Telly.Exclusive.mp4


http://filefloater.com/Umc/Race.3.2018.720p.Untouched.WEB-DL.AVC.AAC.2.0.Esubs-Team.Telly.Exclusive.mp4

1GB LINKS


http://www.heroupload.us/684665ac147acdb8/Race.3.2018.720p.Untouched.WEB-DL.AVC.AAC.2.0.Esubs-Team.Telly.Exclusive.part1.rar
http://www.heroupload.us/749f1657cb99f386/Race.3.2018.720p.Untouched.WEB-DL.AVC.AAC.2.0.Esubs-Team.Telly.Exclusive.part2.rar
http://www.heroupload.us/60feeb7569665d35/Race.3.2018.720p.Untouched.WEB-DL.AVC.AAC.2.0.Esubs-Team.Telly.Exclusive.part3.rar
http://www.heroupload.us/27f1abe7c91b5d78/Race.3.2018.720p.Untouched.WEB-DL.AVC.AAC.2.0.Esubs-Team.Telly.Exclusive.part4.rar



http://filefloater.com/Umd/Race.3.2018.720p.Untouched.WEB-DL.AVC.AAC.2.0.Esubs-Team.Telly.Exclusive.part1.rar
http://filefloater.com/Ume/Race.3.2018.720p.Untouched.WEB-DL.AVC.AAC.2.0.Esubs-Team.Telly.Exclusive.part2.rar
http://filefloater.com/Umf/Race.3.2018.720p.Untouched.WEB-DL.AVC.AAC.2.0.Esubs-Team.Telly.Exclusive.part3.rar
http://filefloater.com/Umg/Race.3.2018.720p.Untouched.WEB-DL.AVC.AAC.2.0.Esubs-Team.Telly.Exclusive.part4.rar



Buy Premium From My Links & Support Me
скачать dle 11.3
 
  • Views: 44
  • Of Comments: 0